老磁带,数字化 谈磁带的数字录制方法
炒面超人 于 2004.12.21 22:16:11 | 源自:www.soomal.com | 版权:投稿 | 平均/总评分:09.00/18

本文系网友投稿,转载时请保留作者和源出处信息

想必很多朋友都有不少的磁带,然而随着技术的发展,磁带渐渐的被CD光盘取代,网络时代的来临,更加使得磁带越来越没有市场。也许你身边的磁带很有纪念价值,也许你的老磁带保存已经成了问题,也许绝版的磁带再也买不到了,这个时候,你需要“备份”你的磁带。

不少人采用翻录的方法来保存磁带,除了保存效果比较差以外,还费钱,占地方。既然数字化不可阻挡,我们何不顺应潮流,也数字化一把?

硬件连接

首先,你需要一台好的放音机和一块录音好的声卡。当然,不必过于苛刻放音机和声卡的品质。将放音机的line out和声卡的line in用音频线连接,OK,如果你的放音机不幸没有line out,那么耳机输出也凑活,只是可能不太忠于原声。

声卡初步设置

接下去我们要对声卡进行设置,顺便测试我们的录音效果。首先双击系统托盘的小喇叭,去掉线路输入下面的静音前面小方块里面的勾,然后单击选项--属性:

  • 点选录音,在线路输入前的小方框打勾,确认:

  • 好,在录音控制界面勾上线路输入下面的勾,这样,系统里其他的杂音就不会进来,只有放音机输出的声音会进来。

  • 声卡初步设置结束,打开电脑音箱(最好用耳机听),播放你的磁带,看是否有输出。先不用计较播放音量大小,等下还需要调整。如果不能正常输出,请检查以上步骤是否正确。

    软件微调

    录音软件不能太马虎也不能太复杂,我们使用CoolEdit Pro2.0,除了可以录音以外,还能进行一些后期处理,完善我们的数字化效果。

  • 全英文?哦,放心,我们只使用一小部分功能。如果你看到的界面与此不同,请按F12或者单击“File”下面的那个大按钮切换成这个样子。首先File--New

  • 如图中选择,点击“OK”

  • 接着我们用放音机播放磁带,在CoolEdit pro里点击左下的录音按钮(呃?哪个是录音?汗,红点的那个,这都不知道啊),试录一段,查看其波形:

  • 如果你的波形是A或者B这样子,都不行,请调整“录音控制面板”中的line in的音量大小,直到录制出来的波形如C一样,这样就正好了。呃?录音控制面板在哪里?上面“声卡初步设置”里面那个就是。

    开始录音

    现在我们开始正式录音了,前面试录的声音你可以删除(Ctrl+A全选,Delete就可以了),也可以File--Close关掉这个文件(不要保存)然后新建一个。

    这里录音的小诀窍是:

    按下放音键以后再按CE pro里面的录音,可以少录一点杂音;自动翻面的放音机可以让你少费一点心,算好啥时候两面都放完回来看就成了。

  • 录制完成以后,将头,尾,中间翻面的部分用鼠标选中,删除(如果你看不全全部的波形,在中间滚动鼠标滚轮可以调整显示多少,上面的绿色滚动条可以调整看到的部分)。然后保存这段录音。由于录下来是wav文件,数百兆大,会需要一点时间。

    后期处理

    保存完毕以后,我们开始对录音文件进行后期处理。首先是降噪,磁带的背景噪声较大,录制过程中也会带入一些噪声。

  • 选中文件中“静音”(就是只有磁带沙沙的背景噪声的部分)部分,但是不要选太多,这只是噪声采样。点击Effects--Noise Reduction--Noise Reduction...,弹出如下界面:

  • 如果你的CPU浮点运算能力非常强悍,可以将FFT Size 设置得高一点,这样处理精度会要高,但也会大大的增加CPU的运算负担。

    点击 Get Profile From Selection 按钮,就开始进行噪声采样运算了,点击OK结束采样。然后Ctrl+A全选所有波形,同样点击Effects--Noise Reduction--Noise Reduction...,但是不要再Get Profile From Selection,噪声我们已经采样过了,点击OK就开始进行降噪。

    由于文件比较大会持续一段时间,视你的CPU而定,强则快,弱则慢(下图中波形为演示用波形,较短,故显示的处理时间很短)。

  • 好,试听一下,效果是否满意?满意的话,保存文件,录音的任务就基本完成了。

    但是有可能遇到这种问题:左右声道音量不一样大。这个问题如果是你的 操作系统/声卡/音频线/放音机 造成的,那么早在试录的时候就应当予以解决,如果你不幸没有事先解决这个问题,对不起,请从头来过;如果是你的磁带有问题,OK,虽然仍然不能处理的很好,不过还是可以解决一些问题的。

    选中一小段波形,然后点击下图红框中的按钮,选中你要调整的那个声道(建议选声音小的一边):

  • 点击Effects--Amplitude--Amplify...,尝试Amplification后面的数字,按OK

  • 试听经过增益放大/衰减以后的那一段,如果不满意,取消刚才的更改,重新设置放大增益,直到你满意(一个漫长的过程)。数字的尝试是很麻烦的,你可以选中部分波形,点击Analyze--statistics...可以查看一下波形的基本信息,可以给你一定的参考,不过我想大多数人还是直接尝试比较直观:

  • 定下一个增益以后,取消刚才对一段试验波形做的更改,使用这个增益对全部波形进行调整,过程是一样的。由于文件比较大会持续一段时间,视你的CPU而定,强则快,弱则慢(下图中波形为演示用波形,较短,故显示的处理时间很短)。

  • 至此wav文件处理完成,保存文件。

    编辑cue文件

    这样做好的wav文件是一大块,很不方便,因此我们需要做一个索引文件。想来经常在网上下载音乐的朋友都见过cue+ape的搭配,我们现在自己写一个cue文件出来。

    PERFORMER "James Horner & London Symphony Orchestra"
    TITLE "Legends Of The Fall"
    FILE "CDImage.ape" WAVE
    TRACK 01 AUDIO
    TITLE "Legends Of The Fall"
    PERFORMER "James Horner & London Symphony Orchestra"
    INDEX 01 00:00:00
    TRACK 02 AUDIO
    TITLE "The Ludlows"
    PERFORMER "James Horner & London Symphony Orchestra"
    INDEX 01 04:17:02
    TRACK 03 AUDIO
    TITLE "Off To War"
    PERFORMER "James Horner & London Symphony Orchestra"
    INDEX 01 09:57:35
    TRACK 04 AUDIO
    TITLE "To The Boys"
    PERFORMER "James Horner & London Symphony Orchestra"
    INDEX 01 15:52:57
    TRACK 05 AUDIO
    TITLE "Samuel's Death"
    PERFORMER "James Horner & London Symphony Orchestra"
    INDEX 01 18:41:22
    TRACK 06 AUDIO
    TITLE "Alfred Moves To Helena"
    PERFORMER "James Horner & London Symphony Orchestra"
    INDEX 01 27:05:57
    TRACK 07 AUDIO
    TITLE "Farewell, Descent Into Madness"
    PERFORMER "James Horner & London Symphony Orchestra"
    INDEX 01 30:06:22
    TRACK 08 AUDIO
    TITLE "The Changing Seasons, Wild Horses, Tristan's Return"
    PERFORMER "James Horner & London Symphony Orchestra"
    INDEX 01 38:19:45
    TRACK 09 AUDIO
    TITLE "The Wedding"
    PERFORMER "James Horner & London Symphony Orchestra"
    INDEX 01 43:30:67
    TRACK 10 AUDIO
    TITLE "Isabel's Murder, Recollections Of Samuel"
    PERFORMER "James Horner & London Symphony Orchestra"
    INDEX 01 46:37:20
    TRACK 11 AUDIO
    TITLE "Revenge"
    PERFORMER "James Horner & London Symphony Orchestra"
    INDEX 01 50:35:27
    TRACK 12 AUDIO
    TITLE "Goodbyes"
    PERFORMER "James Horner & London Symphony Orchestra"
    INDEX 01 56:55:50
    TRACK 13 AUDIO
    TITLE "Alfred, Tristan, The Colonel, The Legend..."
    PERFORMER "James Horner & London Symphony Orchestra"
    INDEX 01 60:07:35

    以上是一个完整的cue文件PERFORMER和TITLE就不多说了,FILE "CDImage.ape" WAVE这一行中引号里面的是音频文件的名字,我们刚才保存的wav文件名(例如abc.wav)可以直接替换进去,变成FILE "abc.wav" WAVE。

    接下去我们看到一个一个的TRACK,按照顺序编号,我们需要编辑的是PERFORMER和TITLE后面的内容(这个根据你的磁带自己写或者随你的喜好),然后就是INDEX 01后面的时间。这个时间是每一首歌开始的时间。

    这些索引时间不能直接由你的磁带歌词单上的时间得出,不过可以做一个参考,这些时间需要从wav文件中确定。当然了,如果你没有关掉CE pro,那就再好不过了,CE pro里面确定时间比较精确方便。

  • 不断尝试标定黄色的标记线直到确定一首歌的开始时间,加在INDEX 01后面,直到确定所有歌曲的开始时间。track的数量按照需要自己增加减少。

    大功告成

    好,我们已经有了一个cue文件,一个wav文件,用Daemon Tools等虚拟光驱加载这张“Audio CD镜像”,看看分轨时间是否正确,如果没有问题,我们就成功了。为了节省空间,您大可以将这张“Audio CD”压缩成您喜欢的格式,不但免去了保存磁带和担心磁带经常听造成的磨损,而且去除了噪音,我们可以听到更为纯净的音乐了。

    请评分
    1
    2
    3
    4
    5
    6
    7
    8
    9
    10
    发表于2015.04.23 22:19:25
    8
    发表于2015.04.23 21:51:04
    7
    发表于2015.04.23 21:49:00
    6
    222.090.***.***
    222.090.***.***
    4
    发表于2004.12.22 08:21:44
    1
    提示
    本贴不可匿名回复,回复等级为:1 ,您现在正处在潜水状态
    回复
    验证码
    0004 为防止广告机贴垃圾,不得已而为之
    表情
    正文
    京ICP备11010137号 京ICP证110276号 京公网安备110114000469号